&title=VIIIBit Explorer (ST)
&artist=Lime
&first=1.3
&des=Jack
&wholebpm=188
&lv_2=6
&lv_3=8
&lv_4=12+
&lv_5=14
&inote_2=(188)
{1},
{1},
{1}1,
{1}1,
{1}8,
{1}8,
{1}1,
{1}1,
{2}8,8,
{1}1b/8b,
{2}1,1,
{2}2,2,
{2}3,3,
{1}4/5,
{2}5,5,
{2}6,6,
{2}7,7,
{1}1b/8b,
{2}7,7,
{1}7/8,
{2}6,6,
{2}4/5,4/5,
{2}3,3,
{1}3/4,
{2}2,2,
{2}1/8,1/8,
{4}1,1,1,,
{2}2,2,
{4}3,3,3,,
{1}4/5,
{4}5,5,5,,
{2}6,6,
{4}7,7,7,,
{2}1/8,1/8,
{1}2b/7b,
{1},
{1},
{1},
{1}7h[1:1]/8h[1:1],
{1},
{1}5h[1:1]/6h[1:1],
{1},
{1}3h[1:1]/4h[1:1],
{1},
{1}1h[1:1]/2h[1:1],
{1},
{1}1h[1:1]/8h[1:1],
{1},
{1}1h[2:1]/2h[2:1],
{1}1/2,
{1}7h[2:1]/8h[2:1],
{1}7/8,
{1}1h[2:1]/8h[2:1],
{1}1b/8b,
{1}1-5[4:3],
{1},
{1}8-4[4:3],
{1},
{1}1-6[4:3],
{1},
{1}8-3[4:3],
{1},
{2}1,1,
{2}2,2,
{2}3,3,
{2}4,4,
{2}5,5,
{2}6,6,
{2}7,7,
{4}1/8,1/8,1/8,,
{4}8b,8,8,,
{4}7,7,7,,
{4}6,6,6,,
{4}5,5,4/5,,
{4}4,4,4,,
{4}3,3,3,,
{4}2,2,2,,
{4}1,1,1/8,,
{4}1,1,2,2,
{4}3,3,4,4,
{4}5,5,6,6,
{4}7,7,7/8,,
{4}8,8,7,7,
{4}6,6,5,5,
{4}4,4,3,3,
{4}2,2,1b/2b,,
{2}1,2,
{2}1/2,1/2,
{2}3,4,
{2}4/5,4/5,
{2}6,7,
{2}7/8,7/8,
{2}1,1,
{1}1/8,
{4}1,1,1,,
{1}2/8,
{4}8,8,8,,
{1}1/7,
{4}8,8,7,7,
{4}6,6,5/6,,
{4}4,4,3,3,
{4}2,2,1/2,,
{1}8b,
{1},
{1},
{1},
E
&inote_3=(188)
{1},
{1},
{1}3>8[2:1],
{2}7,7,
{1}7<4[2:1],
{2}3,3,
{2}3h[2:1],4,
{2}6h[2:1],5,
{2}7,7/8,
{4}1b,2b,3b,4b/5b,
{4}6,6,5,,
{4}3,3,4,,
{4}6,6,5,,
{4}4/5,4/5,3/6,,
{4}3,4,5,6,
{4}7,7,7/8,,
{4}2,2,1/2,,
{4}1/8,2/7,3/6,4b/5b,
{4}6h[2:1],,5,5,
{4}4,3,2/5,,
{4}2h[2:1],,1,1,
{4}8,7,5b/6b,5b/6b,
{4}4b/7b,,4,4,
{4}5,6,7,8,
{1}1h[2:1]/8h[2:1],
{4}2/7,2/7,2b/7b,,
{4}2,2,1,1,
{4}8,8,1/7,,
{4}7,7,8,8,
{4}1,1,2/8,,
{4}7,7,6,6,
{4}5,5,4,4,
{4}3,3,2,2,
{1}1-5[2:1],
{1}6b<5[2:5],
{1},
{1},
{1},
{1}7-4[4:3],
{1},
{1}3<6[4:3],
{1},
{1}7-3[4:3],
{1},
{1}2-6[4:3],
{1},
{1}7h[1:1],
{1}8h[1:1],
{1}1h[1:1],
{2}2,2,
{1}3h[1:1],
{1}4h[1:1],
{1}5h[1:1],
{2}4,4/5,
{4}3b,3,3/4,,
{4}6,6,5/6,,
{4}3,3,3/4,,
{4}5,4/5,3/6,,
{4}7,7,7/8,,
{4}2,2,1/2,,
{4}7,7,7/8,,
{2}1/8,2/7,
{4}3,3,2,2,
{4}1,1,2/8,,
{4}7,7,6,6,
{4}5,5,4/6,,
{4}6,5,4,3,
{4}2,2,1/2,,
{4}7,7,7/8,,
{4}1b,2b,3b,4b/5b,
{4}6,6,5/7,5/7,
{8}8,8,8,,1/7,,,,
{4}2,2,1/2,1/2,
{8}3,3,3,,2/4,,,,
{4}5,6,5/7,5/7,
{8}8,8,8,,1/7,,,,
{4}2,1/2,7,7/8,
{4}1,1/8,2b/7b,,
{8}6,6,6,,5/7,,5/7,,
{4}4,3,1/2,,
{8}8,8,8,,1/7,,1/7,,
{4}6,5,4/6,,
{8}7,7,7,,7/8,,1/6,,
{4}2,1/2,3/8,,
{8}4,4,4,,4/5,,4/5,,
{4}4/5,3/6,2b/7b,,
{4}6,6,5/6,5/6,
{4}7,7,7/8,7/8,
{4}1,2,3,4,
{4}5/6,5/6,4/7,,
{4}3,3,3/4,3/4,
{4}2,2,1/2,1/2,
{4}8,7,6,5,
{4}4/5,4/5,3/6,,
{1}2-5[2:1],
{1}6-1[2:1],
{1}2-5[2:1],
{4}6,6,5/6,,
{4}4,3,2,1,
{4}8,7,6,5,
{8}4/5,4/5,4/5,,3/6,3/6,3/6,,
{8}2/7,2/7,2/7,,1/8,1/8,1/8,,
{1}2b/7b,
{1},
{1},
{1},
E
&inote_4=(188)
{1},
{8}5,5,4,4,4/5,,3b/6b,,
{1}2b/7h[1:1],
{8},,,,,,3,4,
{4}2h[4:3]/5b,,,3>6[2:1],
{16},,,,,,,,4,,,4,,,3/5,,
{4}3b/5b,2,1/2,7,
{8}7/8,,6,,5/6,,4,4,
{4}4z8[8:3],,,7h[4:3],
{4}1b,2b,3b-8[8:1],,
{4}1b/7b,5/6,3/4,1/2,
{4}3/8,1/2,3/4,5/2-6[8:1],
{4}8b,7,5/7,4/5,
{16}2/4,,,,1,,1,,4h[16:3],,,3h[16:3],,,5,,
{8}3/5,,2/6,2/6,2/6,,8,,
{4}3/7,1,2/5,7h[4:1]/8,
{8}1,1,6,6,3,3,5h[4:3],,
{8}4,,4,,4,3/6,2b-5[8:1]/7b-4[8:1],,
{8},,,,6,6,5,5,
{4}7h[4:1],8,1/6,3/8,
{8}5/6,,3/4,,2,2,1,1,
{4}3h[4:1],4,1b/6b,3b/8b,
{8}2b/7b,,2/7,,6,6,5,5,
{4}7h[4:1],1,4/6,5/3>6[2:1],
{4},,,4/5,
{4}2/4,5/7,1-5[8:1],8b,
{8}4/6,,2/8,,3/4,4/3-7[8:1],,5-1[8:1],
{8},2-6[8:1],,8h[4:1],,5,,4/6,
{8}4/6,,2h[4:1],,1,1-5[8:1],,3-7[8:1],
{8},6-2[8:1],,4h[4:1],,1,,3/8,
{8}3/8,,5/6,,3/4,3/4-8[8:1],,1-5[8:1],
{8},7-3[8:1],,4,,2,2-7[8:1]*>5[8:1],,
{4},6-3[8:1]*<1[8:1],,2pp5[4:3],
{4},,,1b,
{1}3h[1:2]/7b,
{1},
{1},
{1},
{8}6,,5,,4,4,,3<6[4:1],
{1},
{16}3/6,,,,5,4,5,,,,,,6,,6>3[4:1],,
{8},,,,,,,3,
{8}3h[4:1],,4h[4:1],,5,,6,6h[4:1],
{8},5h[4:1],,4,,4,,4/5,
{8},4,4,,6,5,4,3q5[8:5],
{1},
{2}6h[2:1],7h[2:1],
{2}8h[2:1],1h[2:1],
{2}2h[2:1],3h[2:1],
{2}4h[2:1],5h[2:1],
{2}6h[1:1],5,
{2}3h[1:1],4,
{2}5h[1:1],4h[1:1],
{2},8b,
{8}1/8,,2,2,4h[4:1],,6h[4:1],,
{8}8,,8,,2/6,,1,8,
{8}2/7,,6,6,5h[4:1]/6,,3h[4:1],,
{8}1,,1,,3/7,,8,1,
{8}2/7,,3,4,5,,4/7h[4:1],,
{8}6,,8,1,2/6,,4,5,
{4}3/6,3/6,2/7,8/1>8[4:3],
{1},
{4}2h[8:1]/7h[8:1],2h[8:1]/7h[8:1],2h[8:1]/4h[8:1],2h[8:1]/5h[8:1],
{4}2h[8:1]/4h[8:1],2-4[8:1]/6-4[8:1],,,
{4}3h[8:1]/6h[8:1],3h[8:1]/6h[8:1],5h[8:1]/6h[8:1],1h[8:1]/6h[8:1],
{8}4h[8:1]/6h[8:1],,2h[8:1]/6h[8:1],,3h[8:1]/5h[8:1],,,2,
{8}2,3,4,5,6,7,5/8h[4:1],,
{8}3,3,2h[4:1]/6,,5,6,7/1s5[4:1],,
{4},6>3[8:1],,2,
{4}1b/4h[2:1],2b,3b-8[8:1],5b,
{8}4/6,7,2/8,3,4/5,3,1/2,8,
{8}4/7-3[8:1],,1-5[8:1],,6,,7,7,
{8}4/7,3,1/2,8,5/7,8,1/2,3,
{8}4/7-2[8:1],,5-1[8:1],,8,,6,6,
{8}5/6,7,1/8,2,3-8[8:1]/4-7[8:1],,,,
{8}5/6,,5/6,4/7,3-8[8:1]/8-5[8:1],,,,
{8}1/6,2,3/8,7,1>4[8:1]/6<1[8:1],,,,
{2}5w1[8:1],3b/7b,
{8}2/6,2/6,1b/5b,,4/6,7,1/8,2,
{8}5/3-8[8:1],,7-4[8:1],,1,,3,3,
{8}3/5,2,1/8,7,4/6,7,8,1,
{4}4/2-6[8:1],5-1[8:1],4,2/8,
{8}3/4,2,1/8,7,5-2[8:1]/6-1[8:1],,,,
{8}3/4,,3/4,2/5,1-4[8:1]/6-1[8:1],,,,
{8}3/8,2,1/6,7,3>8[8:1]/8<5[8:1],,,,
{2}4w8[8:1],2b/6b,
{4}6-1[8:1],5-2[8:1],7-4[8:1],8-3[8:1],
{4}5-8[8:1],2-5[8:1],7-2[8:1],4w8[8:1],
{4},2b/6b,3-8[8:1]/7-4[8:1],,
{4}1>4[8:1]/5<8[8:1],,3/7,6/2-5[8:1],
{4}4-7[8:1],3-8[8:1],1-6[8:1],5-2[8:1],
{4}7-4[8:1],1-6[8:1],5,3/5,
{8}2,2,4,4,5,5,7,7,
{16}1,8,1,8,1,8,1,8,2,7,2,7,2,7,2,7,
{4}2,4b/5b,6h[2:1],,
{2}4h[2:1],2h[2:1],
{8}8h[2:1],,,,7,7,4,4,
{16}3/6,,2,1,2b,,7,8,7b,,3,4,3b,,6,5,
{8}6b,4/7,4/7,4/7,6,5,4,3,
{8}1/2,8,7,6,3/5,2,1/8,1/8,
{16}1,8,1,8,1,8,1,8,2,7,2,7,2,7,2,7,
{16}3,6,3,6,3,6,3,6,4,5,4,5,3b/6b,,,,
{24}1b/8h[4:3],,,,,,,,,,,,,,,,,,6,5,4,,,,
{1},
{1},
{1},
E
&inote_5=(188){1},
{16}3,4,,4,5,,4/6,,3/7-3[8:1],,2/8,,3/7,,,,
{8}1b,1,8,8,
{16}1h[16:3],,,2h[16:3],,,3,,
7h[16:3],,,6h[16:3],,,5,,
{8}5,3-8[8:1],7-4[8:1],3b,7b,
{32}1,,,,2,,,,3,,,,8h[16:3],,,,,,7h[16:3],,,,,,6,,,,
{24}2,3,4,5,6,7,
{8}1/8,2/7,
{16}3h[32:4]/6h[32:4],,,4h[32:4]/5h[32:4],,,
{8}2/7b,2b/7,8,1,2,
{16}8h[16:3],,,7h[16:3],,,
{8}6,
{16}2h[16:3],,,3h[16:3],,,4,,
{8}4,6-1[8:1],2-5[8:1],6b,2b,,
{16}8,1/7,2/6,3/5,4w8[8:1],,,,,,,,
{4}1b/7,2b/6,{16}3b/5-1[8:1],,4,4,5,,,,
{8}2/8,3,4/5,6,1/7,
{16}3,4,3,,
{8}2/5,1,
{16}6,5,6,,
{8}4/7,8,2,4,6,2/8,3,4/5,6,1/7,
{16}3,4,3,,
{8}2/5,1,
{16}6,5,6,,
{8}4/7,8,
{16}3,2/4,,6,5/7,,
{8}1,1,2/8,2/8,3<6[8:1]/7,3/7,,,
{16}8-4[8:1]/4,7/3,6/2,5/1,,,,,
{24}6>3[8:1],7,8,1,2,3,,,,,,,
{16}1,8,2,7,1,8,3,6,
{32}1,2,3,4,5,6,7,8,1,2,3,4,5,6,7,8,
{4}1>4[8:1],1/8<5[8:1],
{16}1/8,,3,3,
{16}2-6[8:1]/4b,,,,2b/6,,,,
{8}8,8,1/7,6,4/5,3,
{16}2/8,7,6,5,2,3,4,5,
{8}7p5[4:1],8,1b,,3,2h[8:1]/4h[8:1],,5h[8:1]/7h[8:1],
{16},,1,1,1,,
{8}2/8,
{16}1/7,2,3,4,7,6,5,4,
{4}2b-7[8:1]/3,6b-3[8:1]/2,6/2b,
{8}1,1,2/8,3,4/5,6,
{16}1/7,2,3,4,5,6,7,8,
{8}1-5[8:1]/5,1/5,6b<4[4:1],,,,,
{16}1h[8:1],,,2h[8:1]/8h[8:1],,,{4}3-1[8:1]/7-1[8:1],3b-5[8:1]/7b-5[8:1],3b/7b-3[8:1],
{4}1bw5[8:1]/7b,1b,
{8}3/7,
{16}3,4,2,,6,5,7,,
{4}2-4[8:1]/8,1-5[8:1]/2,1/8-4[8:1],7-5[8:1]/8,1/7,
{8}3/4,2/5,
{16}6,5,7,,3,4,2,,
{4}7-5[8:1]/1,8-4[8:1]/7,8/1-5[8:1],1/2-4[8:1],
{8}2/8,
{16}8,7,6,5,
{8}3b/4b,2,2,2,1/8,7,7,7,5/6,4,3/5,2,1/8,7,4/6,3,
{16}2,1,2,1,4,5,4,5,8,7,8,7,1,8,2,7,
{983}3,,,,,,,,,,,,,,,,,,,,,,,,,,,,,,,,,,,,,,,,,{625}4,,,,,,,,,,,,,,,,,,,,,,,,,,{983}5,,,,,,,,,,,,,,,,,,,,,,,,,,,,,,,,,,,,,,,,,6,,,,,,,,,,,,,,,,,,,,,,,,,,,,,,,,,,,,,,,,,{625}7,,,,,,,,,,,,,,,,,,,,,,,,,,{983}8,,,,,,,,,,,,,,,,,,,,,,,,,,,,,,,,,,,,,,,,,{641}1,,,,,,,,,,,,,,,,,,,,{639}2,,,,,,,,,,,,,,,,,,,,3,,,,,,,,,,,,,,,,,,,,{641}4,,,,,,,,,,,,,,,,,,,,5,,,,,,,,,,,,,,,,,,,,{639}6,,,,,,,,,,,,,,,,,,,,7,,,,,,,,,,,,,,,,,,,,{641}8,,,,,,,,,,,,,,,,,,,,{625}1,,,,,,,,,,,,,{622}2,,,,,,,,,,,,,{625}3,,,,,,,,,,,,,4,,,,,,,,,,,,,{622}5,,,,,,,,,,,,,{625}6,,,,,,,,,,,,,7,,,,,,,,,,,,,{622}8,,,,,,,,,,,,,{625}1,,,,,,,,,,,,,2,,,,,,,,,,,,,{622}3,,,,,,,,,,,,,{625}4,,,,,,,,,,,,,{4}5w1[8:1],
{2}5b,3,4,5,6,,,
{8},5,3,4,
{4}2-4[8:1],2
,
{8}6,4,5,
{4}3<6[4:1],3,,
{8}7,5,6,
{4}4,
{16}8,8,8,,
{8}3,5,4,
{4}6>3[4:1],6,,
{8}2,4,3,
{4}5,4/6,5/7,
{8}8,8,,
{4}3/5,2/4,
{8}1,1,8,,4/5,4/5,,6,5,4,6/3,,
{16}1,8,1,8,1,8,1,8,2,3,4,5,6,7,
{4}1/8,,2h[4:1],4,1h[4:1],4,8h[4:1],5,7h[4:1],5,
{8}6,4,5,
{4}3<6[4:1],6<1[4:1],1>4[4:1],4,
{16}7,7,
{4}5,4/5,
{16}2,,,3,,,4,,7,,,6,,,5,,,4,,,
{8}3,3,6,6,4,4,
{16}5h[16:3],,,4h[16:3],,,5,,2>4[8:1]/7<5[8:1],,,,,,,,
{32}
1/8,2,3,4,5,6,7,8,1,2,3,4,5,6,7,8,
{8}
1h[2:1],,3,5,7<5[8:1],,7>5[2:1],,4h[8:7],,,,,,,6,
2b/8h[4:3],,6,4,2>4[8:1],,2,,
{24}
2/6,1,8,7,6,5,
4,,,4,,,{16}2h[8:1]/4h[8:1],,,5h[8:1]/7h[8:1],,,1/8,,1b/8b,,,,
{8}
4/5,4/5,7/2-6[8:1],,6-2[8:1],,8,,8,1/7,2/6,,,
{8}
4/5,6,5,3,4,7-3[8:1],,3-7[8:1],,1h[8:3],,,8,1>4[8:1]/8<5[8:1],,1b/8b,,
{8}
2/7h[8:1],2,2/8h[8:1],2,2/1h[8:1],2,2/3h[8:1],2,2/4h[8:1],2,2/5h[8:1],2,2-6[8:1]/6h[8:1],2,8b,,
{8}
7/1h[8:1],7,7/8h[8:1],7,7/6h[8:1],7,7/5h[8:1],7,7/4h[8:1],7,7/3h[8:1],7,
{24}
7/2h[8:1],6,5,
{8}
4-8[8:1],,3b,1,1,2/8,2/8,3-8[8:1]/7-5[8:1],3/7,,,6-1[8:1]/2-4[8:1],6/2,,,
{24}
5w1[8:1],4/6,3/7,2/8,,,,,,,,,
{16}
3,7,3,7,4>5[4:1],6,4,6,4b,,,,,,,,
{8}
1b-7[8:1],,2b-6[8:1],,3b-5[8:1],,8b,,
{16}
2/6,,7,8,7,,2,1,2,,7,8,6,,2,1,3,,
5,4,5<8[8:1],,
{24}
2b,3,4,5,,,,,,
{16}
6,5,7,5,6,,2,4,3,,8,5,6,,1,4,3,,
7,8,7,,2,1,2,,6,5,6,,5/7,,
8-4[8:1],4,6,2,8,,,,
{8}
7/2-6[8:1],8,2/1-5[8:1],,1/8-4[8:1],,8/7-3[8:1],,
1V75[8:1]/1?V35[8:1],1,,,,
3/7,1/8,2,1-3[8:1]/8-4[8:1],7,1-5[8:1]/8-6[8:1],,1-3[8:1]/8-4[8:1],,1/8,,
5,4/6,2>5[8:1]/8<5[8:1],,,,
{32}
1-5[8:1],2,3,4,5,6,7,8,1b,,,,,,,,
{16}
4/6,,2,1,2,,7,8,7,,
4,5,4>1[8:1],,
{24}
7b,6,5,4,,,,,,
{16}
3,4,2,4,3,,7,5,6,,1,4,3,,
8,5,6,,2,1,2,,7,8,7,,3,4,3,,2/4,,
1-5[8:1],5,3,7,1b,,,,
{8}
7-5[8:1],7,8-4[8:1],8,1-5[8:1],1,
2b-4[8:1],2,1-5[8:1],1,8-4[8:1],8,7-3[8:1],7,1b,,
{8}
1-4[8:1]/8-5[8:1],2/7,
1b<6[8:1]/8b>3[8:1],,
1b-5[8:1]/8b-4[8:1],,
1b/8b,,2/7,3/6,
4>1[8:1]/5<8[8:1],,4b/5b,,
{16}
2/7,,3,4,2,,6,5,7,,
3,4,1,,6,5,8,,2,1,2>5[8:1],,
{24}
5b,6,7,8,,,
{8}
1<6[8:1],2q4[4:1],1,2,,
{16}
5,5,5,,
{8}
4<6[8:1],6<8[8:1],8>2[8:1],2>4[8:1],,
5w1[8:1],,,,
{8}
4/6,3/7-3[8:1],2/8,
1-5[8:1],,1/8-4[8:1],,8/2-6[8:1],,
7,7>2[8:1],,7/3<6[8:1],,3/8-4[8:1],,
3,2,5/1-5[8:1],,4,8,,
7<4[8:1],8,7,2,
{8}
3b/4b,5b/6b,2b/4b,5b/7b,1b/3b,6b/8b,2b/7b,,
{32}
1-5[8:1]/8-4[8:1],2/7,3/6,4/5,,,,,1b/8b,,,,,,,,
{8}
3/7h[8:3],,,5,
2h[4:1]/8-4[8:1],,8,,
{16}1h[8:1]/3h[8:1],,,6h[8:1]/8h[8:1],,,
{8}2b/7,2/7b,,
5/1-5[8:1],,8,7,6,
3/4,2/5,
{24}
1b,2,3,4,,,8b,7,6,{16}5h[8:1]/4h[8:1],,,1h[8:1]/8h[8:1],,,
{8}
2b/7b,2b/7b,
{16}
3,4,3,,2b/5b,,1,,
6,5,6,,4b/7b,,8,,
{8}
1b/7b,
3,2b/4b,
6,5b/7b,
1,2b/8b,
{8}
7b-3[8:1],7,7/1b-5[8:1],
1,1/8b-4[8:1],
8,8/2b-6[8:1],
2,2/7b-3[8:1],
7,7/1b,1,
{32}
1b,2,3,4,5,6,7,8,{48}1,2,3,4,5,6,7,8,1,2,3,4,{4}5b<4[2:1],,,8b,,
E
